#TITLE:Xin Wo;
#SUBTITLE:;
#ARTIST:S.H.E & Fahrenheit;
#TITLETRANSLIT:Xin Wo;
#SUBTITLETRANSLIT:;
#ARTISTTRANSLIT:S.H.E & Phi Luan Hai;
#CREDIT:;
#BANNER:Xin Wo-bn.png;
#BACKGROUND:Xin Wo-bg.png;
#LYRICSPATH:;
#CDTITLE:pm4cd.png;
#MUSIC:Xin Wo.mp3;
#OFFSET:0.000;
#SAMPLESTART:65.310;
#SAMPLELENGTH:20.000;
#SELECTABLE:YES;
#BPMS:0.000=120.010;
#STOPS:;
#BGCHANGES:;
// cache tags:
#FIRSTBEAT:0.750;
#LASTBEAT:454.750;
#SONGFILENAME:Songs/Music V.I.P ^_^/Xin Wo/Xin Wo.sm;
#HASMUSIC:1;
#HASBANNER:1;
#MUSICLENGTH:234.402;
// end cache tags

//---------------dance-single - ----------------
#NOTES:
     dance-single:
     :
     Hard:
     17:
     1.000,1.000,1.000,0.213,1.000,1531.000,449.000,50.000,0.000,126.000:
0000
0000
0000
1100
0001
1100
0001
1110
0000
0000
0000
1111
0000
0010
0000
0101
,
0000
1010
0000
0101
0000
1000
0000
1100
0000
0110
0000
0001
0000
1100
0000
0011
,
0000
0110
0000
0011
0000
1000
0000
0110
0000
1000
0000
0111
0000
0001
0000
0011
,
0000
1100
0000
0110
0000
0010
0000
0101
0000
1010
0000
0001
0000
0110
0000
1010
,
0000
0101
0000
0101
0000
1100
0010
0101
0010
1001
0100
1011
0000
1000
0000
0110
,
0000
1010
0000
0101
0000
0010
0000
1100
0000
0011
0000
0100
0000
1010
0000
0101
,
0000
1010
0000
0101
0000
0010
0000
1100
0000
0001
0000
1110
0000
0001
0000
0110
,
0000
1001
0000
0101
0000
0010
0000
1100
0000
0011
0000
0100
0000
1010
0000
1010
,
0000
0101
0000
0101
0000
0011
0100
1010
0100
1001
0010
1101
0000
1000
0100
0010
,
0100
1000
0001
0010
0100
1000
0010
0100
0010
0001
0010
0100
1000
0010
0100
0010
,
0100
1000
0010
0100
0010
0100
0010
0001
0010
0100
0010
1001
0000
1000
0100
0001
,
1000
0100
0010
0100
1000
0010
0100
0001
1000
0010
0100
0010
0001
0010
0100
1000
,
1000
1000
0100
0010
0001
1010
0100
1001
0100
0011
0100
1011
0000
0100
1000
0100
,
0010
0001
0100
0010
0001
0100
0010
0100
1000
0100
0010
0001
0000
0100
0010
0100
,
1000
0100
0010
0001
0010
0100
1000
0100
0010
0100
0000
1001
0000
0100
0010
0001
,
1000
0010
0100
0001
0100
0010
0001
0100
1000
0100
0001
0010
0100
0010
1000
0010
,
0100
0010
0001
0010
0001
1100
0010
1001
0010
0101
1000
0111
1000
0100
1000
0100
,
0010
0001
0100
0010
0001
0010
1000
0100
0001
0010
0100
1000
0100
0010
0100
1000
,
0100
0010
0001
0100
0010
0001
0010
0100
0001
0010
0100
1000
0010
0100
1000
0100
,
0010
1000
0100
0010
0001
0100
0010
1000
0010
0100
1000
0100
0010
0001
0010
1000
,
0100
0010
0100
0010
0001
1010
0100
0011
0100
1001
0010
1101
0010
0100
1000
0100
,
0001
0010
0100
1000
0100
0001
0100
0010
0100
0001
0010
0100
1000
0100
0010
0100
,
1000
0100
1000
0100
0010
0001
0010
0001
0010
0100
0010
0001
0010
0100
1000
0010
,
0100
1000
0001
0010
0100
1000
0010
0100
0010
0001
1000
0100
0010
0001
0010
0100
,
1000
0010
1000
0100
0010
1100
0001
1100
0010
0101
0010
1101
0000
0000
0000
0101
,
0000
0110
0000
1001
0000
0010
0000
1100
0000
0012
0000
1000
0000
0110
0000
1010
,
0000
0110
0000
1013
0000
0100
0000
0101
0000
0001
0000
1110
0000
0000
0000
0110
,
0000
1100
0000
0011
0000
0100
0000
0120
0000
1002
0000
0100
0000
1100
0030
0110
,
0000
1103
0000
0101
0000
0110
0001
1010
0100
0011
0100
1011
0000
0000
0000
0101
,
0000
1010
0000
0101
0000
0100
0000
0011
0000
0101
0000
1000
0000
0110
0000
0011
,
0000
1001
0000
0110
0000
1000
0000
0011
0000
1000
0000
0101
0000
0010
0000
1100
,
0000
1010
0000
0101
0000
0010
0000
0011
0000
1010
0000
0100
0000
1001
0000
1100
,
0000
0110
0000
0101
0000
1001
0100
1010
0100
0011
0100
1011
0100
0001
0010
0100
,
0010
0001
1000
0100
0010
0001
0010
0001
0010
0100
1000
0011
0100
0010
1000
0100
,
0010
0001
0010
0100
1000
0010
0100
0010
0001
1000
0100
1010
0100
1000
0001
0010
,
0100
0010
0001
1000
0100
0010
0001
0010
0100
1000
0010
1100
0010
1000
0100
0010
,
0100
0001
0010
1001
0100
0011
1000
0101
0010
1100
0010
1101
0010
0001
0010
0100
,
1000
0010
0100
0001
0010
0001
1000
0100
0010
0001
0010
0101
1000
0010
0100
0001
,
0010
1000
0100
1000
0001
0010
0100
0010
0100
0002
0010
1100
0010
0100
1000
0100
,
0010
0100
1000
0010
0100
0010
1000
0010
0100
1013
0100
1000
0010
0001
0100
0001
,
1000
0010
0100
1000
0100
0011
0100
1010
0001
0110
0001
1110
0001
1000
0010
0101
,
0010
0100
0001
0010
0100
1000
0010
1100
0010
0100
0010
0100
1000
0100
0010
1001
,
0100
0010
0100
1000
0001
0010
0100
1010
0001
0100
0010
1000
0100
0001
0010
1100
,
0010
0001
0010
0100
1000
0010
0100
0011
0100
0010
1000
0100
0001
0010
0100
1001
,
0010
0001
0010
0100
0010
1100
0010
0101
0010
1001
0010
1101
0010
0100
1000
0101
,
0010
0001
0010
1000
0010
0100
0001
1010
0100
0010
0001
0100
0010
1000
0100
1001
,
0010
0001
0100
0010
0100
0001
0010
0101
1000
0010
0100
2001
0010
0100
0001
0010
,
0001
0010
0100
0011
0100
0001
0010
0100
0010
0101
0010
0100
0010
0100
0001
0010
,
0100
0001
0100
0001
0010
3101
0010
1100
0010
0101
1000
0111
0000
0000
0000
2000
,
0000
0000
0000
0200
3000
0000
0000
0020
0300
0000
0000
2202
0030
0000
0000
0020
,
3303
0000
0000
0200
0030
0000
0000
2000
0300
0000
0000
0222
3000
0000
0000
2000
,
0333
0000
0000
0002
3000
0000
0000
0020
0003
0000
0000
2202
0030
0000
0000
0020
,
3303
0000
0000
0200
0030
0000
0000
0020
0300
1000
0100
0002
0030
1000
0000
0200
,
0003
0001
0000
0020
0300
1000
0000
0002
0030
1100
0000
2220
0003
0001
0000
0002
,
3330
0100
0000
0020
0003
1000
0000
0200
0030
1001
0000
2022
0300
0100
0000
0200
,
3033
0001
0000
2000
0300
0001
0000
0010
0000
0001
0000
3111
0000
1100
0010
1101
,
0000
0011
0100
1011
0000
0110
1000
0111
1000
0110
0001
1111
0000
0001
0010
0100
,
0010
0101
1000
0101
0010
0001
0010
0100
1000
0011
0100
0010
1000
0101
0010
0101
,
0010
1001
0010
1001
0010
0100
0010
0001
1000
0100
1000
0011
0100
0010
0001
0010
,
0100
1001
0010
1001
0010
0100
0010
0001
0010
1100
0010
0100
0001
1100
0010
1100
,
0001
0110
1000
0110
1000
0101
1000
0011
0100
1010
0001
1110
0000
0001
0010
0001
,
1000
0101
0010
0101
1000
0100
1000
0100
0010
1100
0010
0100
1000
0011
0100
0001
,
0010
0101
1000
0110
0001
0010
0100
1000
0010
0100
1000
0101
0010
0001
0010
0100
,
1000
0011
0100
0011
1000
0100
1000
0100
0010
1100
0001
1100
0011
1100
0011
1100
,
0011
1100
0001
0010
0001
1010
0100
1001
0100
0011
1000
0111
1000
0100
0010
1001
,
0010
0100
1000
0100
0001
0010
0001
1000
0100
0001
1000
0001
0100
0010
0001
1010
,
0100
0010
0001
1000
0010
0100
1000
0010
0100
0010
1000
0001
1000
0010
0100
1001
,
0010
0100
1000
0100
0010
0100
1000
0001
0010
0100
1000
0100
0001
0010
0100
1010
,
0100
1000
0010
0001
0010
1100
0010
0101
0010
1100
0001
1110
0001
0010
0001
1100
,
0010
0001
0010
0100
0010
0100
1000
0100
0001
0100
0001
1000
0100
0010
1000
0101
,
0010
0100
0010
0100
0001
0010
0100
1000
0010
0100
0010
0001
0100
0010
0100
1001
,
0010
0100
1000
0100
0010
0001
0010
0001
0100
0010
1000
0010
0100
1001
0000
1001
,
0000
0110
0000
0110
0000
1001
0010
1100
0010
0101
1000
0111
0000
0000
0000
1001
,
0000
0110
0000
0011
0000
0001
0000
1010
0000
0201
0000
0010
0000
1001
0000
1010
,
0000
0011
0000
1010
0000
0010
0000
1001
0000
0010
0000
0311
0000
0000
0000
1100
,
0000
0110
0000
0011
0000
0100
0000
1001
0000
1020
0000
0001
0000
1100
0000
0101
,
0000
1100
0000
1001
0000
1130
0001
0110
1000
0101
0010
1101
0000
0000
0000
0011
,
0000
0110
0000
1100
0000
0001
0000
0110
0000
1001
0000
0010
0000
0101
0000
0100
,
0000
1100
0000
0101
0000
0000
0000
0110
0000
0000
0000
1010
0000
0100
0000
1001
,
0000
0011
0000
1100
0000
0100
0000
1010
0000
1100
0000
0001
0000
1010
0000
0101
,
0000
0110
0000
1101
0000
1001
1001
0110
0110
1001
1001
1011
0100
1000
0100
0011
,
1000
0010
0100
1010
0100
1000
0100
1010
0100
0001
0010
1100
0010
0100
0010
1001
,
0100
0010
1000
0110
1000
0010
0100
1010
0001
1000
0100
0011
1000
0100
0010
1001
,
0010
0100
1000
0101
0010
0001
1000
0110
0001
0010
0100
1001
0100
1000
0010
0101
,
0010
1000
0100
0011
0100
1001
0110
1001
0101
1010
0101
1110
0001
0100
0010
1100
,
0010
1000
0100
1001
0100
0010
0001
0110
1000
0001
0010
1100
0010
0100
1000
0101
,
0010
0100
1000
0011
0100
0010
0001
1010
0100
1000
0100
1012
0100
0010
0100
1010
,
0100
0010
1000
0110
1000
0010
0100
1010
0100
1003
0010
1100
0010
0101
0010
0101
,
1000
0110
0001
0110
1000
0101
1010
0101
1010
0101
1010
1101
0010
0100
0001
1100
,
0010
1000
0001
1010
0100
0010
1000
0101
0010
0001
0100
1010
0100
0001
0010
1001
,
0010
0100
1000
0110
0001
0100
0010
1001
0010
0100
1000
0101
0010
0001
0100
1010
,
0001
0010
0100
1001
0010
0100
0010
1100
0010
0001
0100
0011
1000
0010
0100
1010
,
0001
1000
0001
0110
0001
0100
1000
0101
0010
0100
0001
0110
1000
0100
0010
1001
,
0100
0010
0100
0011
0100
1000
0001
0110
0001
1000
0010
1001
0100
0001
0100
0011
,
0100
1000
0001
1010
0100
1000
0010
0101
0010
0100
1000
0021
0100
1000
0001
1100
,
0001
0100
1000
0101
1000
0100
0001
1100
0001
0100
1000
0130
0010
1001
0010
1001
,
0010
0101
0010
0101
1000
0011
0110
1100
1001
0110
1001
0111
1000
0010
0100
0011
,
0100
0010
0001
1110
0001
1000
0100
0011
0100
0010
1000
0111
1000
0001
0010
0101
,
0010
0001
1000
0111
1000
0100
0010
1100
0010
0100
1000
0111
1000
0010
0100
1001
,
0100
0001
0010
1101
0010
0100
1000
0110
1000
0100
0010
1101
0010
0100
0001
1100
,
0001
1000
0010
1101
0010
1001
0110
0011
0110
1100
0110
1101
0010
1000
0100
1001
,
0100
0001
0100
1011
0100
0001
0100
1010
0100
0001
0100
1011
0100
0001
0010
1100
,
0010
1000
0100
1011
0100
0001
1000
0110
1000
0100
0010
1102
0010
1000
0100
1010
,
0100
0010
0100
1110
0010
0100
0010
1100
0010
1000
0100
0013
0001
1100
0010
1100
,
0010
0101
1000
0101
0010
1001
0110
1100
0011
1100
0011
1011
0100
0010
0100
1011
,
0100
0010
0001
1110
0001
0010
0100
1011
0100
1000
0010
1101
0010
0001
0100
1011
,
0100
0001
0010
1101
0010
1000
0001
1110
0001
0100
1000
0111
1000
0100
0010
1101
,
0010
0001
1000
0111
1000
0010
0001
1110
0001
1000
0100
1011
0100
1000
0001
1110
,
0001
0100
0010
1101
0010
1100
0110
0011
1001
0110
1001
1110
0001
0010
0100
1011
,
0100
1000
0001
1110
0001
1000
0100
1011
0100
0001
0010
1101
0010
0100
0001
1110
,
0001
1000
0001
1110
0001
0010
0100
1011
0100
0001
0010
2101
0010
0001
0010
0111
,
0100
0010
0001
0111
0100
0001
0010
0111
0001
0100
0010
3111
1000
1011
0100
1011
,
0001
1110
0001
1110
0001
1100
1100
0011
0011
1001
0110
2022
0000
0000
0000
0000
,
0000
0000
0000
0000
0000
0000
0000
0000
0000
0000
0000
3033
0000
0000
0000
0000
;

//---------------dance-single - ----------------
#NOTES:
     dance-single:
     :
     Easy:
     1:
     0.000,0.000,0.000,0.000,0.000,0.000,0.000,0.000,0.000,0.000:
0000
0000
0000
0000
;

//---------------dance-single - Copied from----------------
#NOTES:
     dance-single:
     Copied from:
     Medium:
     1:
     0.000,0.000,0.000,0.000,0.000,0.000,0.000,0.000,0.000,0.000:
0000
0000
0000
0000
;
